热搜: 3D 4K 2019 2020 UHD
微信扫一扫 分享朋友圈

已有 213 人浏览分享

[BDISO] [MONDAYS/如果不让上司注意到这个时间循环就无法结束] 「DIY 简繁中字」Mondays See You This Week 2022 Blu-ray 1080p AVC DTS-HD MA 5.1-DIY@TTG [31.63GB]

[复制链接]

该用户从未签到

7万

主题

7万

帖子

12万

积分

管理员

Rank: 9Rank: 9Rank: 9

积分
123691
发表于  2023-9-13 00:56:08 | 显示全部楼层 | 阅读模式



◎译  名 MONDAYS/如果不让上司注意到这个时间循环就无法结束
◎片  名 MONDAYS/このタイムループ、上司に気づかせないと終わらない/Mondays: See You ‘This‘ Week!
◎年  代 2022
◎产  地 日本
◎类  别 喜剧
◎语  言 日语
◎导  演 竹林亮
◎主  演 圆井湾
       槙田雄司
       长村航希
       三河悠冴
       八木光太郎
       高野春树
       岛田桃依
       池田良
       主浜晴美
DISC INFO:
Disc Label:     MONDAYS
Disc Size:      33,960,056,122 bytes
Protection:     AACS
BDInfo:         0.7.5.8
PLAYLIST REPORT:
Name:                   00005.MPLS
Length:                 1:23:04.604 (h:m:s.ms)
Size:                   25,125,304,320 bytes
Total Bitrate:          40.32 Mbps
VIDEO:
Codec                   Bitrate             Description     
-----                   -------             -----------     
MPEG-4 AVC Video        32540 kbps          1080p / 23.976 fps / 16:9 / High Profile 4.1
AUDIO:
Codec                           Language        Bitrate         Description     
-----                           --------        -------         -----------     
DTS-HD Master Audio             Japanese        1842 kbps       5.1 / 48 kHz /  1842 kbps / 16-bit (DTS Core: 5.1 / 48 kHz /  1509 kbps / 16-bit)
DTS-HD Master Audio             Japanese        1693 kbps       2.0 / 48 kHz /  1693 kbps / 16-bit (DTS Core: 2.0 / 48 kHz /  1509 kbps / 16-bit)
DTS-HD Master Audio             Japanese        1709 kbps       2.0 / 48 kHz /  1709 kbps / 16-bit (DTS Core: 2.0 / 48 kHz /  1509 kbps / 16-bit)
SUBTITLES:
Codec                           Language        Bitrate         Description     
-----                           --------        -------         -----------     
Presentation Graphics           Chinese         42.201 kbps                     
Presentation Graphics           Chinese         43.089 kbps                     
FILES:
Name            Time In         Length          Size            Total Bitrate   
----            -------         ------          ----            -------------   
00005.M2TS      0:00:00.000     1:22:54.594     25,107,972,096  40,378         
00007.M2TS      1:22:54.594     0:00:09.009     16,607,232      14,747         
00009.M2TS      1:23:03.603     0:00:01.000     724,992         5,794         

游客,如果您要查看本帖隐藏内容请回复

回复

使用道具 举报

  • TA的每日心情
    开心
    前天 13:55
  • 签到天数: 341 天

    [LV.8]以坛为家I

    5

    主题

    650

    帖子

    2046

    积分

    黄金VIP会员

    Rank: 2

    积分
    2046
    发表于 2023-9-14 22:04:46 | 显示全部楼层
    谢谢分享
    回复

    使用道具 举报

  • TA的每日心情

    2024-5-19 20:34
  • 签到天数: 595 天

    [LV.9]以坛为家II

    0

    主题

    2329

    帖子

    4149

    积分

    论坛元老

    Rank: 8Rank: 8

    积分
    4149
    发表于 2023-9-14 22:11:00 | 显示全部楼层
    感谢大大分享
    回复

    使用道具 举报

  • TA的每日心情
    开心
    3 小时前
  • 签到天数: 804 天

    [LV.10]以坛为家III

    6

    主题

    7763

    帖子

    1万

    积分

    白金VIP会员

    Rank: 3Rank: 3

    积分
    10098
    发表于 2023-9-15 06:48:35 | 显示全部楼层
    XXXXXXXXXXXXXXXXXXXXXXX
    回复

    使用道具 举报

  • TA的每日心情
    开心
    2024-6-5 12:26
  • 签到天数: 172 天

    [LV.7]常住居民III

    0

    主题

    681

    帖子

    1474

    积分

    黄金VIP会员

    Rank: 2

    积分
    1474
    发表于 2023-9-16 19:14:01 | 显示全部楼层
    感谢分享
    回复

    使用道具 举报

  • TA的每日心情
    开心
    2024-2-29 08:00
  • 签到天数: 347 天

    [LV.8]以坛为家I

    1

    主题

    4422

    帖子

    5801

    积分

    论坛元老

    Rank: 8Rank: 8

    积分
    5801
    发表于 2023-11-9 07:14:11 | 显示全部楼层
    谢谢分享
    回复

    使用道具 举报

  • TA的每日心情
    开心
    2024-1-6 12:49
  • 签到天数: 44 天

    [LV.5]常住居民I

    0

    主题

    71

    帖子

    286

    积分

    中级会员

    Rank: 3Rank: 3

    积分
    286
    发表于 2023-11-22 22:23:24 | 显示全部楼层
    感谢分享
    回复

    使用道具 举报

  • TA的每日心情
    无聊
    昨天 02:45
  • 签到天数: 34 天

    [LV.5]常住居民I

    0

    主题

    43

    帖子

    281

    积分

    中级会员

    Rank: 3Rank: 3

    积分
    281
    发表于 2024-4-23 00:12:44 | 显示全部楼层
    感谢大大分享
    回复

    使用道具 举报

  • TA的每日心情
    开心
    2024-5-8 12:24
  • 签到天数: 3 天

    [LV.2]偶尔看看I

    0

    主题

    6

    帖子

    169

    积分

    注册会员

    Rank: 2

    积分
    169
    发表于 2024-4-23 09:21:16 | 显示全部楼层
    感谢辛苦奉献
    回复

    使用道具 举报

  • TA的每日心情
    慵懒
    2024-4-23 11:47
  • 签到天数: 1 天

    [LV.1]初来乍到

    0

    主题

    2

    帖子

    19

    积分

    新手上路

    Rank: 1

    积分
    19
    发表于 2024-4-23 11:52:13 | 显示全部楼层
    找了很久 来看看
    回复

    使用道具 举报

    您需要登录后才可以回帖 登录 | 立即注册

    本版积分规则

    0

    关注

    1

    粉丝

    76020

    主题
    今日推荐
    下载排行
    最新电影
    今日推荐

    QQ|Archiver|手机版|小黑屋|高清鸭-HDDUCK--每天开心网 ( 渝ICP备2021002221号-2 )

    GMT+8, 2024-6-17 11:40 , Processed in 0.371010 second(s), 34 queries .

    Powered by Discuz! X3.4

    © 2001-2020 Comsenz Inc.