热搜: 3D 4K 2019 2020 UHD
微信扫一扫 分享朋友圈

已有 291 人浏览分享

[BDISO] 逃避虽可耻但有用 第3碟本季终[日版DIY简繁+双语字幕] We Married as a Job 2016 Disc3 JPN Blu-ray 1080i AVC LPCM 2 0-blucook#25@CHDBits[43.97GB]

[复制链接]

该用户从未签到

7万

主题

7万

帖子

12万

积分

管理员

Rank: 9Rank: 9Rank: 9

积分
123691
发表于  2023-6-7 01:45:20 | 显示全部楼层 | 阅读模式




   1、原盘源于TTG,在此感谢!
   2、字幕下载于字幕库,在此感谢!
   
  由晓风残月提供资源,特此感谢!
  PD16和先锋碟机播放测试通过。
  日版蓝光原盘 DIY正片.国语.简繁字幕,不撸酷客第780弹

※※※※※※※ 影片信息 ※※※※※※※
◎译  名:逃避虽可耻但有用 / Nigeru wa haji daga, yaku ni tatsu / 雇佣妻子(港) / 月薪娇妻(台) / 逃跑是可耻但是有用 / 逃避虽可耻但很有用 / 逃避可耻但有用 / Nigeru wa Haji da ga Yaku ni Tatsu / Runaway is Ashamed But Helpful / We Married as Job
◎片  名:逃げるは恥だが役に立つ
◎年  代:2016
◎产  地:日本
◎类  型:喜剧
◎语  言:日语
◎上映日期:2016-10-11(日本)
◎评  级:|
◎IMDb链接:https://www.imdb.com/title/tt5917100/
◎IMDb评分:8.2 (10616人评价)
◎TMDb链接:https://www.themoviedb.org/tv/68293
◎豆瓣链接:https://movie.douban.com/subject/26816519/
◎豆瓣评分:8.3 (91614人评价)
◎导  演:金子文纪 / 土井裕泰 / 石井康晴
◎编  剧:野木亚纪子 / 海野纲弥
◎主  演:新垣结衣 / 星野源 / 大谷亮平 / 藤井隆 / 真野惠里菜 / 成田凌 / 山贺琴子 / 宇梶刚士 / 富田靖子 / 古田新太 / 石田百合子 / 细田善彦 /
       古馆宽治 / 叶山奖之
◎剧情简介:
  森山实栗(新垣结衣 饰)自研究生毕业之后就一直仕途不顺,最近更是惨遭解雇,处于“无业游民”的状态之下,日子过得十分凄惨。经由父亲的介绍,无处可去的实栗来到了名为津崎平匡(星野源 饰)的单身男子家中,为其料理家事,就这样,二十五岁的实栗成为了一名家政妇。
  实栗心地善良手脚 勤快,在她的安排和劳作下,平匡家中的一切被打理的井井有条,实栗因此获得了平匡的信赖,亦找到了生活的重心,重新振作了起来。然而好景不长,实栗的父母决定搬离此地,这也就意味着实栗必须“离职”。实在无法接受此事的实栗决定和平匡“契约结婚”,在外装做夫妻,在内依旧是雇主和职员。就这样,这对“孤男寡女”开始了他们的同居生活。
◎获奖情况:
  第3届豆瓣电影年度榜单
  评分最高的日剧(提名)
引用
※※※※※※※ 参数信息 ※※※※※※※
DISC INFO:
Disc Label:     We Married as a Job 2016 D03
Disc Size:      47,210,820,193 bytes
Protection:     AACS
BDInfo:         0.7.5.5
PLAYLIST REPORT:
Name:                   00000.MPLS
Length:                 3:27:23.531 (h:m:s.ms)
Size:                   46,803,382,272 bytes
Total Bitrate:          30.09 Mbps
VIDEO:
Codec                   Bitrate             Description     
-----                   -------             -----------     
MPEG-4 AVC Video        24920 kbps          1080i / 29.970 fps / 16:9 / High Profile 4.1
AUDIO:
Codec                           Language        Bitrate         Description     
-----                           --------        -------         -----------     
LPCM Audio                      Japanese        1536 kbps       2.0 / 48 kHz /  1536 kbps / 16-bit
LPCM Audio                      Japanese        1536 kbps       2.0 / 48 kHz /  1536 kbps / 16-bit
SUBTITLES:
Codec                           Language        Bitrate         Description     
-----                           --------        -------         -----------     
Presentation Graphics           Japanese        124.213 kbps                    
Presentation Graphics           Chinese         31.964 kbps(简体字幕)                     
Presentation Graphics           Chinese         33.460 kbps(繁体字幕)                     
Presentation Graphics           Chinese         52.127 kbps(简日双语字幕)                     
Presentation Graphics           Chinese         53.559 kbps(繁日双语字幕)                     
FILES:
Name            Time In         Length          Size            Total Bitrate   
----            -------         ------          ----            -------------   
00000.M2TS      0:00:00.000     0:44:49.953     10,155,773,952  30,204         
00001.M2TS      0:44:49.953     0:44:50.087     10,107,549,696  30,059         
00002.M2TS      1:29:40.041     0:57:55.004     12,999,770,112  29,927         
00003.M2TS      2:27:35.046     0:59:48.484     13,540,288,512  30,186

      
※※※※※※※ 影片截图 ※※※※※※※





游客,如果您要查看本帖隐藏内容请回复

回复

使用道具 举报

  • TA的每日心情
    开心
    2024-6-5 12:26
  • 签到天数: 172 天

    [LV.7]常住居民III

    0

    主题

    681

    帖子

    1474

    积分

    黄金VIP会员

    Rank: 2

    积分
    1474
    发表于 2023-6-9 11:23:38 | 显示全部楼层
    感谢分享
    回复

    使用道具 举报

  • TA的每日心情
    开心
    4 小时前
  • 签到天数: 804 天

    [LV.10]以坛为家III

    6

    主题

    7763

    帖子

    1万

    积分

    白金VIP会员

    Rank: 3Rank: 3

    积分
    10098
    发表于 2023-6-11 07:31:37 | 显示全部楼层
    谢谢分享
    回复

    使用道具 举报

  • TA的每日心情
    开心
    2023-11-6 23:25
  • 签到天数: 265 天

    [LV.8]以坛为家I

    1

    主题

    2606

    帖子

    3726

    积分

    论坛元老

    Rank: 8Rank: 8

    积分
    3726
    发表于 2023-6-13 22:50:37 来自手机  | 显示全部楼层
    感谢分享
    回复

    使用道具 举报

  • TA的每日心情
    开心
    2024-1-28 22:59
  • 签到天数: 48 天

    [LV.5]常住居民I

    0

    主题

    182

    帖子

    348

    积分

    中级会员

    Rank: 3Rank: 3

    积分
    348
    发表于 2023-6-15 20:13:17 | 显示全部楼层
    感谢分享
    回复

    使用道具 举报

  • TA的每日心情
    开心
    前天 01:56
  • 签到天数: 344 天

    [LV.8]以坛为家I

    0

    主题

    847

    帖子

    1952

    积分

    黄金VIP会员

    Rank: 2

    积分
    1952
    发表于 2023-6-19 15:44:46 | 显示全部楼层
    谢谢分享
    回复

    使用道具 举报

  • TA的每日心情
    开心
    2024-2-29 08:00
  • 签到天数: 347 天

    [LV.8]以坛为家I

    1

    主题

    4422

    帖子

    5801

    积分

    论坛元老

    Rank: 8Rank: 8

    积分
    5801
    发表于 2023-6-26 07:56:44 | 显示全部楼层
    谢谢分享
    回复

    使用道具 举报

  • TA的每日心情
    无聊
    2024-4-24 17:57
  • 签到天数: 378 天

    [LV.9]以坛为家II

    17

    主题

    7211

    帖子

    7842

    积分

    论坛元老

    Rank: 8Rank: 8

    积分
    7842
    发表于 2023-7-9 19:38:18 | 显示全部楼层
    感谢分享
    回复

    使用道具 举报

  • TA的每日心情

    2024-5-5 15:15
  • 签到天数: 99 天

    [LV.6]常住居民II

    1

    主题

    226

    帖子

    673

    积分

    黄金VIP会员

    Rank: 2

    积分
    673
    发表于 2023-8-12 22:50:11 | 显示全部楼层

    感谢分享
    回复

    使用道具 举报

  • TA的每日心情
    奋斗
    7 天前
  • 签到天数: 171 天

    [LV.7]常住居民III

    3

    主题

    731

    帖子

    1482

    积分

    黄金VIP会员

    Rank: 2

    积分
    1482
    发表于 2024-1-1 08:42:28 | 显示全部楼层
    谢谢分享
    回复

    使用道具 举报

    您需要登录后才可以回帖 登录 | 立即注册

    本版积分规则

    0

    关注

    1

    粉丝

    76020

    主题
    今日推荐
    下载排行
    最新电影
    今日推荐

    QQ|Archiver|手机版|小黑屋|高清鸭-HDDUCK--每天开心网 ( 渝ICP备2021002221号-2 )

    GMT+8, 2024-6-17 12:35 , Processed in 0.485308 second(s), 33 queries .

    Powered by Discuz! X3.4

    © 2001-2020 Comsenz Inc.