热搜: 3D 4K 2019 2020 UHD
微信扫一扫 分享朋友圈

已有 56 人浏览分享

[行尸走肉 第八季]「第5碟 本季完」「DIY 简繁中字」The Walking Dead S08 Disc05 BluRay 1080p AVC Atmos TrueHD7 1-003@TTG[42.65GB]

[复制链接]

该用户从未签到

6万

主题

6万

帖子

17万

积分

管理员

Rank: 9Rank: 9Rank: 9

积分
179314
发表于 2022-9-5 00:30:57 | 显示全部楼层 | 阅读模式
[行尸走肉 第八季]「第5碟 本季完」「DIY 简繁中字」The Walking Dead S08 Disc05 BluRay 1080p AVC Atmos TrueHD7 1-003@TTG[42.65GB]-1.jpg

◎译  名 行尸走肉 第八季
◎片  名 The Walking Dead Season 8
◎年  代 2017
◎产  地 美国
◎类  别 剧情 / 惊悚 / 恐怖
◎语  言 英语
◎上映日期 2017-10-22(美国)
◎IMDb评星  ★★★★★★★★␣␣
◎IMDb评分  8.2/10 from 832,820 users
◎IMDb链接  https://www.imdb.com/title/tt1520211/
◎豆瓣评星 ★★★☆␣
◎豆瓣评分 6.8/10 from 21,562 users
◎豆瓣链接 https://movie.douban.com/subject/26842605/
◎单集片长 44分钟
◎集  数 16
◎导  演 格里高利·尼克特洛 / Gregory Nicotero
      罗斯玛丽·罗德里格兹 / Rosemary Rodriguez
      拉里·滕 / Larry Teng
◎演  员 安德鲁·林肯 / Andrew Lincoln | 饰 Rick Grimes
      诺曼·瑞杜斯 / Norman Reedus | 饰 Daryl
      劳伦·科汉 / Lauren Cohan | 饰 Maggie
      钱德勒·里格斯 / Chandler Riggs | 饰 Carl
      丹娜·奎里拉 / Danai Gurira | 饰 Michonne
      梅丽莎·麦克布莱德 / Melissa McBride | 饰 Carol
      连尼·詹姆斯 / Lennie James | 饰 Morgan
      阿兰娜·莫特森 / Alanna Masterson | 饰 Tara
      乔什·麦克德米特 / Josh McDermitt | 饰 Eugene
      克里斯蒂·瑟拉图斯 / Christian Serratos | 饰 Rosita Espinosa
      塞斯·吉列姆 / Seth Gilliam | 饰 Father Gabriel Stokes
      罗斯·马昆德 / Ross Marquand | 饰 Aaron
      杰弗里·迪恩·摩根 / Jeffrey Dean Morgan | 饰 Negan
      奥斯丁·阿梅里奥 / Austin Amelio | 饰 Dwight
      汤姆·佩恩 / Tom Payne | 饰 Paul ‘Jesus‘ Rovia
      山德·贝克利 / Xander Berkeley | 饰 Gregory
      卡里·佩顿 / Khary Payton | 饰 Ezekiel
      史蒂文·奥格 / Steven Ogg | 饰 Simon
      凯特琳·内肯 / Katelyn Nacon | 饰 Enid
      宝拉雅娜·麦金托什 / Pollyanna McIntosh | 饰 Jadis
      杰森·华纳·史密斯 / Jayson Warner Smith | 饰 Gavin
      卡兰·麦克奥利菲 / Callan McAuliffe
      布丽亚娜·范思克思 / Briana Venskus | 饰 女儿国一员
      特拉茜·丁维迪 / Traci Dinwiddie | 饰 Regina
      罗伯特·廷斯利 / Robert Tinsley | 饰 Walker / Savior
      马森·林茨 / Macsen Lintz
      杰森·道格拉斯 / Jason Douglas | 饰 Tobin
      妮可·巴雷 / Nicole Barré
      斯科特·德克特 / Scott Deckert
◎编  剧 弗兰克·德拉邦特 / Frank Darabont
      罗伯特·柯克曼 / Robert Kirkman
      托尼·摩尔 / Tony Moore
      查理·阿德拉德 / Charlie Adlard
      斯科特·M·金普勒 / Scott M. Gimple
◎副  导  演 Franchesca Winters
◎视觉特效 Robert C. Rhodes
◎其  它 约翰·伯纳克 / John Bernecker
◎标  签 行尸走肉 | 美剧 | 丧尸 | 人性 | 美国 | 惊悚 | AMC | 2017
◎简  介 
  AMC正式宣布续订《行尸走肉》第八季。
◎获奖情况 
  第24届美国演员工会奖 (2018)
  剧集最佳特技群戏(提名)
  第70届美国编剧工会奖 (2018)
  电视奖 最佳改编新媒体短篇剧集(提名)
  第16届美国视觉效果协会奖 (2018)
  最佳广播节目辅助视觉效果(提名)
DISC INFO:
Disc Title:     Disc05
Disc Size:      45,799,831,552 bytes
Protection:     AACS
Extras:         BD-Java
BDInfo:         0.7.5.9 (compatible layout created by DVDFab 12.0.7.8)
PLAYLIST REPORT:
Name:                   00300.MPLS  
Length:                 2:44:59.014 (h:m:s.ms)
Size:                   39,984,754,752 bytes
Total Bitrate:          32.31 Mbps
VIDEO:
Codec                   Bitrate             Description     
-----                   -------             -----------     
MPEG-4 AVC Video        25834 kbps          1080p / 23.976 fps / 16:9 / High Profile 4.1
AUDIO:
Codec                           Language        Bitrate         Description     
-----                           --------        -------         -----------     
Dolby TrueHD Audio              English         3350 kbps       7.1 / 48 kHz / 2710 kbps / 16-bit (AC3 Core: 5.1-EX / 48 kHz / 640 kbps)
Dolby Digital Audio             French          448 kbps        5.1 / 48 kHz / 448 kbps
SUBTITLES:
Codec                           Language        Bitrate         Description     
-----                           --------        -------         -----------     
Presentation Graphics           English         27.149 kbps                     
Presentation Graphics           Spanish         22.648 kbps                     
Presentation Graphics           Chinese         18.691 kbps                     
Presentation Graphics           Chinese         19.522 kbps                     
FILES:
Name            Time In         Length          Size            Total Bitrate   
----            -------         ------          ----            -------------   
00000.M2TS      0:00:00.000     0:55:05.343     13,559,214,528  32,817 kbps     
00003.M2TS      0:55:05.343     0:57:56.514     14,153,088,192  32,568 kbps     
00004.M2TS      1:53:01.858     0:51:57.155     12,272,452,032  31,496 kbps     

截图借用碟1





游客,如果您要查看本帖隐藏内容请回复

回复

使用道具 举报

  • TA的每日心情

    1 小时前
  • 签到天数: 144 天

    [LV.7]常住居民III

    1

    主题

    2609

    帖子

    5689

    积分

    铂金VIP会员

    Rank: 12Rank: 12Rank: 12

    积分
    5689
    发表于 2022-9-6 03:44:15 | 显示全部楼层
    看看!!!!!!!!!
    回复

    使用道具 举报

  • TA的每日心情
    擦汗
    昨天 07:18
  • 签到天数: 200 天

    [LV.7]常住居民III

    16

    主题

    5511

    帖子

    1万

    积分

    铂金VIP会员

    Rank: 12Rank: 12Rank: 12

    积分
    11808
    发表于 2022-9-6 22:38:40 | 显示全部楼层
    感谢分享
    回复

    使用道具 举报

  • TA的每日心情
    开心
    昨天 07:32
  • 签到天数: 98 天

    [LV.6]常住居民II

    0

    主题

    1958

    帖子

    4225

    积分

    钻石VIP会员(年)

    Rank: 15Rank: 15Rank: 15Rank: 15Rank: 15

    积分
    4225
    发表于 2022-9-7 14:31:00 | 显示全部楼层
    谢谢啦!
    回复

    使用道具 举报

    您需要登录后才可以回帖 登录 | 立即注册

    本版积分规则

    0

    关注

    0

    粉丝

    64841

    主题
    今日推荐
    下载排行
    最新电影
    今日推荐

    QQ|Archiver|手机版|小黑屋|高清鸭-HDDUCK |网站地图

    GMT+8, 2022-10-3 03:13 , Processed in 0.300197 second(s), 35 queries .

    Powered by Discuz! X3.4

    © 2001-2020 Comsenz Inc.