热搜: 3D 4K 2019 2020 UHD
微信扫一扫 分享朋友圈

已有 142 人浏览分享

速度与激情9[导演剪辑加长+剧场二合一版 DIY国配+国配简繁中字]修复画面卡顿 F9 The Fast Saga 2021 2in1 UHD 2160p HEVC TrueHD Atmos 7.1-Pete@HDSky[85.64GB]

[复制链接]

该用户从未签到

6万

主题

6万

帖子

17万

积分

管理员

Rank: 9Rank: 9Rank: 9

积分
179314
发表于 2022-9-5 00:57:21 | 显示全部楼层 | 阅读模式
速度与激情9[导演剪辑加长+剧场二合一版 DIY国配+国配简繁中字]修复画面卡顿 F9 The Fast Saga 2021 2in1 UHD 2160p HEVC TrueHD Atmos 7.1-Pete@HDSky[85.64GB]-1.jpg

◎译  名 速度与激情9/狂野时速9/速激9/玩命关头9(台)/F9狂野时速(港)/Fast & Furious 9/FF9
◎片  名 F9: The Fast Saga
◎年  代 2021
◎产  地 美国 / 泰国 / 加拿大
◎类  别 动作 / 犯罪
◎语  言 英语
◎上映日期 2021-05-19(韩国) / 2021-05-21(中国大陆) / 2021-06-25(美国)
◎IMDb评分  5.2/10 from 100971 users
◎IMDb链接  https://www.imdb.com/title/tt5433138/
◎豆瓣评分 5.2/10 from 166199 users
◎豆瓣链接 https://movie.douban.com/subject/25728006/
◎片  长 142分钟(中国大陆)
◎导  演 林诣彬 Justin Lin
◎编  剧 丹·凯西 Daniel Casey / 盖瑞·斯科特·汤普森 Gary Scott Thompson / 克里斯·摩根 Chris Morgan
◎主  演 范·迪塞尔 Vin Diesel
       约翰·塞纳 John Cena
       米歇尔·罗德里格兹 Michelle Rodriguez
       乔丹娜·布鲁斯特 Jordana Brewster
       泰瑞斯·吉布森 Tyrese Gibson
       卢达·克里斯 Ludacris
       查理兹·塞隆 Charlize Theron
       海伦·米伦 Helen Mirren
       姜成镐 Sung Kang
       娜塔莉·伊曼纽尔 Nathalie Emmanuel
       迈克尔·鲁克 Michael Rooker
       卢卡斯·布莱克 Lucas Black
       杜俊纬 Jason Tobin
       卡迪·B Cardi B
       吉姆·帕拉克 Jim Parrack
       芬恩·科尔 Finn Cole
       安珀·西耶娜 Amber Sienna
       马丁·福特 Martyn Ford
       艾拉·沃克 Ella Walker
       泽井杏奈 Anna Sawai
       图厄·埃尔斯特德·拉斯姆森 Thue Ersted Rasmussen
       米拉吉·格尔比克 Miraj Grbic
       吉米·斯达 Jimmy Star
       莱克斯·艾尔 Lex Elle
       温尼·贝内特 Vinnie Bennett
       马克·克雷尼克 Mark Krenik
       杰森·斯坦森 Jason Statham
       库尔特·拉塞尔 Kurt Russell
       谢伊·惠格姆 Shea Whigham
       弗朗西斯·纳干诺 Francis Ngannou
◎标  签 动作 | 美国 | 飙车 | 犯罪 | 2021 | 赛车 | 跑车 | 科幻
◎简  介
  “唐老大”多姆·托莱多(范·迪塞尔 饰)与莱蒂(米歇尔·罗德里格兹 饰)和他的儿子小布莱恩,过上了远离纷扰的平静生活。然而他们也知道,安宁之下总潜藏着危机。这一次,为了保护他所爱的人,唐老大不得不直面过去。他和伙伴们面临的是一场足以引起世界动荡的阴谋,以及一个前所未遇的一流杀手和高能车手。而这个名叫雅各布(约翰·塞纳 饰)的人,恰巧是多姆遗落在外的亲弟弟。
◎获奖情况
  第7届豆瓣电影年度榜单  (2020)
  最值得期待的外语电影(提名)
  
  第6届豆瓣电影年度榜单  (2019)
  最值得期待的外语电影(提名)
引用
DISC INFO:
Disc Title:     FAST AND FURIOUS 9
Disc Label:     FAST AND FURIOUS 9 UHD Blu-ray
Disc Size:      91,951,019,180 bytes
Protection:     AACS2
Extras:         Ultra HD, BD-Java
BDInfo:         0.7.5.8
PLAYLIST REPORT:
Name:                   00801.MPLS
Length:                 2:29:55.486 (h:m:s.ms)
Size:                   63,613,572,096 bytes
Total Bitrate:          56.57 Mbps
(*) Indicates included stream hidden by this playlist.
VIDEO:
Codec                   Bitrate             Description     
-----                   -------             -----------     
MPEG-H HEVC Video       41896 kbps          2160p / 23.976 fps / 16:9 / Main 10 @ Level 5.1 @ High / 10 bits / HDR10+ / BT.2020
* MPEG-H HEVC Video     4726 kbps           1080p / 23.976 fps / 16:9 / Main 10 @ Level 5.1 @ High / 10 bits / Dolby Vision / BT.2020
AUDIO:
Codec                           Language        Bitrate         Description     
-----                           --------        -------         -----------     
Dolby TrueHD/Atmos Audio        English         3542 kbps       7.1 / 48 kHz /  3094 kbps / 16-bit (AC3 Embedded: 5.1 / 48 kHz /   448 kbps / DN -27dB)
DTS-HD Master Audio             Chinese         2635 kbps       7.1 / 48 kHz /  2635 kbps / 16-bit (DTS Core: 5.1 / 48 kHz /  1509 kbps / 16-bit)
SUBTITLES:
Codec                           Language        Bitrate         Description     
-----                           --------        -------         -----------     
Presentation Graphics           English         34.698 kbps                     
Presentation Graphics           Chinese         12.514 kbps                     
Presentation Graphics           Chinese         13.168 kbps                     
                  
FILES:
Name            Time In         Length          Size            Total Bitrate   
----            -------         ------          ----            -------------   
00007.M2TS      0:00:00.000     0:10:27.001     4,636,744,896   59,153         
00080.M2TS      0:10:27.001     0:01:53.154     759,907,392     53,686         
00059.M2TS      0:12:20.156     0:14:17.898     6,524,888,064   60,839         
00081.M2TS      0:26:38.054     0:00:18.476     122,474,688     52,790         
00061.M2TS      0:26:56.531     0:08:45.983     3,544,449,408   53,901         
00082.M2TS      0:35:42.515     0:02:07.919     859,953,984     53,746         
00063.M2TS      0:37:50.434     0:02:39.659     1,063,726,272   53,272         
00083.M2TS      0:40:30.094     0:02:37.949     1,065,340,224   53,930         
00065.M2TS      0:43:08.043     0:02:17.595     915,311,040     53,185         
00084.M2TS      0:45:25.639     0:05:55.646     2,474,712,768   55,654         
00067.M2TS      0:51:21.286     0:02:04.249     821,236,608     52,841         
00327.M2TS      0:53:25.535     0:05:42.383     2,326,819,008   54,354         
00069.M2TS      0:59:07.919     0:01:44.896     692,995,968     52,810         
00086.M2TS      1:00:52.815     0:01:45.855     715,086,912     54,000         
00071.M2TS      1:02:38.671     0:02:38.449     1,105,778,880   55,800         
00087.M2TS      1:05:17.121     0:03:29.417     1,416,269,184   54,082         
00073.M2TS      1:08:46.538     0:20:31.230     8,486,770,368   55,140         
00088.M2TS      1:29:17.768     0:01:11.196     475,798,656     53,401         
00075.M2TS      1:30:28.964     0:22:27.054     10,026,184,320  59,541         
00089.M2TS      1:52:56.019     0:00:27.277     184,742,208     54,017         
00077.M2TS      1:53:23.296     0:14:03.509     6,375,980,352   60,465         
00090.M2TS      2:07:26.805     0:01:02.979     439,923,264     55,807         
00079.M2TS      2:08:29.785     0:21:25.701     8,578,477,632   53,374         
引用
DISC INFO:
Disc Title:     FAST AND FURIOUS 9
Disc Label:     FAST AND FURIOUS 9 UHD Blu-ray
Disc Size:      91,951,019,180 bytes
Protection:     AACS2
Extras:         Ultra HD, BD-Java
BDInfo:         0.7.5.8
PLAYLIST REPORT:
Name:                   00800.MPLS
Length:                 2:22:52.271 (h:m:s.ms)
Size:                   60,736,672,896 bytes
Total Bitrate:          56.68 Mbps
(*) Indicates included stream hidden by this playlist.
VIDEO:
Codec                   Bitrate             Description     
-----                   -------             -----------     
MPEG-H HEVC Video       41968 kbps          2160p / 23.976 fps / 16:9 / Main 10 @ Level 5.1 @ High / 10 bits / HDR10+ / BT.2020
* MPEG-H HEVC Video     4732 kbps           1080p / 23.976 fps / 16:9 / Main 10 @ Level 5.1 @ High / 10 bits / Dolby Vision / BT.2020
AUDIO:
Codec                           Language        Bitrate         Description     
-----                           --------        -------         -----------     
Dolby TrueHD/Atmos Audio        English         3549 kbps       7.1 / 48 kHz /  3101 kbps / 16-bit (AC3 Embedded: 5.1 / 48 kHz /   448 kbps / DN -27dB)
DTS-HD Master Audio             Chinese         2652 kbps       7.1 / 48 kHz /  2652 kbps / 16-bit (DTS Core: 5.1 / 48 kHz /  1509 kbps / 16-bit)
SUBTITLES:
Codec                           Language        Bitrate         Description     
-----                           --------        -------         -----------     
Presentation Graphics           English         34.101 kbps                     
Presentation Graphics           Chinese         12.107 kbps                     
Presentation Graphics           Chinese         12.730 kbps                    
                  
FILES:
Name            Time In         Length          Size            Total Bitrate   
----            -------         ------          ----            -------------   
00007.M2TS      0:00:00.000     0:10:27.001     4,636,744,896   59,153         
00058.M2TS      0:10:27.001     0:00:36.453     244,119,936     53,452         
00059.M2TS      0:11:03.454     0:14:17.898     6,524,888,064   60,839         
00060.M2TS      0:25:21.353     0:00:18.476     122,726,016     52,899         
00061.M2TS      0:25:39.829     0:08:45.983     3,544,449,408   53,901         
00062.M2TS      0:34:25.813     0:01:23.041     558,344,640     53,736         
00063.M2TS      0:35:48.854     0:02:39.659     1,063,726,272   53,272         
00064.M2TS      0:38:28.514     0:01:19.245     532,538,496     53,704         
00065.M2TS      0:39:47.760     0:02:17.595     915,311,040     53,185         
00066.M2TS      0:42:05.356     0:05:12.937     2,168,921,856   55,432         
00067.M2TS      0:47:18.293     0:02:04.249     821,236,608     52,841         
00326.M2TS      0:49:22.542     0:00:48.590     324,919,296     53,404         
00069.M2TS      0:50:11.132     0:01:44.896     692,995,968     52,810         
00070.M2TS      0:51:56.029     0:05:16.316     2,151,199,680   54,392         
00071.M2TS      0:57:12.345     0:02:38.449     1,105,778,880   55,800         
00072.M2TS      0:59:50.795     0:02:59.137     1,210,219,584   54,021         
00073.M2TS      1:02:49.932     0:20:31.230     8,486,770,368   55,140         
00074.M2TS      1:23:21.162     0:00:27.110     181,681,920     53,448         
00075.M2TS      1:23:48.273     0:22:27.054     10,026,184,320  59,541         
00076.M2TS      1:46:15.327     0:00:22.355     152,105,664     54,229         
00077.M2TS      1:46:37.682     0:14:03.509     6,375,980,352   60,465         
00078.M2TS      2:00:41.192     0:00:45.378     317,352,000     55,845         
00079.M2TS      2:01:26.570     0:21:25.701     8,578,477,632   53,374      

游客,如果您要查看本帖隐藏内容请回复

回复

使用道具 举报

  • TA的每日心情

    1 小时前
  • 签到天数: 144 天

    [LV.7]常住居民III

    1

    主题

    2609

    帖子

    5689

    积分

    铂金VIP会员

    Rank: 12Rank: 12Rank: 12

    积分
    5689
    发表于 2022-9-6 03:39:41 | 显示全部楼层
    看看!!!!!!!!!
    回复

    使用道具 举报

  • TA的每日心情
    奋斗
    昨天 08:50
  • 签到天数: 66 天

    [LV.6]常住居民II

    0

    主题

    568

    帖子

    1390

    积分

    铂金VIP会员

    Rank: 12Rank: 12Rank: 12

    积分
    1390
    发表于 2022-9-6 12:38:33 | 显示全部楼层
    谢谢分享
    回复

    使用道具 举报

  • TA的每日心情
    开心
    昨天 07:32
  • 签到天数: 98 天

    [LV.6]常住居民II

    0

    主题

    1958

    帖子

    4225

    积分

    钻石VIP会员(年)

    Rank: 15Rank: 15Rank: 15Rank: 15Rank: 15

    积分
    4225
    发表于 2022-9-6 16:58:56 | 显示全部楼层
    谢谢分享
    回复

    使用道具 举报

  • TA的每日心情
    擦汗
    昨天 07:18
  • 签到天数: 200 天

    [LV.7]常住居民III

    16

    主题

    5511

    帖子

    1万

    积分

    铂金VIP会员

    Rank: 12Rank: 12Rank: 12

    积分
    11808
    发表于 2022-9-6 22:19:15 | 显示全部楼层
    感谢分享
    回复

    使用道具 举报

  • TA的每日心情
    奋斗
    2 小时前
  • 签到天数: 144 天

    [LV.7]常住居民III

    1

    主题

    5248

    帖子

    1万

    积分

    铂金VIP会员

    Rank: 12Rank: 12Rank: 12

    积分
    11097
    发表于 2022-9-7 21:34:36 | 显示全部楼层

    谢谢分享
    回复

    使用道具 举报

  • TA的每日心情
    开心
    昨天 08:58
  • 签到天数: 211 天

    [LV.7]常住居民III

    4

    主题

    4222

    帖子

    9196

    积分

    铂金VIP会员

    Rank: 12Rank: 12Rank: 12

    积分
    9196
    发表于 2022-9-12 19:05:38 | 显示全部楼层
    速度与激情9
    回复

    使用道具 举报

  • TA的每日心情
    开心
    昨天 23:14
  • 签到天数: 146 天

    [LV.7]常住居民III

    0

    主题

    3544

    帖子

    7557

    积分

    铂金VIP会员

    Rank: 12Rank: 12Rank: 12

    积分
    7557
    发表于 2022-9-14 23:54:34 | 显示全部楼层
    感謝分享
    回复

    使用道具 举报

  • TA的每日心情
    开心
    昨天 18:50
  • 签到天数: 141 天

    [LV.7]常住居民III

    2

    主题

    248

    帖子

    939

    积分

    钻石VIP会员(永久)

    Rank: 20Rank: 20Rank: 20Rank: 20Rank: 20

    积分
    939
    发表于 2022-9-22 21:36:28 | 显示全部楼层
    感謝樓主提供分享
    回复

    使用道具 举报

  • TA的每日心情
    开心
    昨天 00:01
  • 签到天数: 201 天

    [LV.7]常住居民III

    0

    主题

    1415

    帖子

    3753

    积分

    铂金VIP会员

    Rank: 12Rank: 12Rank: 12

    积分
    3753
    发表于 3 天前 | 显示全部楼层
    谢谢分享
    回复

    使用道具 举报

    您需要登录后才可以回帖 登录 | 立即注册

    本版积分规则

    0

    关注

    0

    粉丝

    64841

    主题
    今日推荐
    下载排行
    最新电影
    今日推荐

    QQ|Archiver|手机版|小黑屋|高清鸭-HDDUCK |网站地图

    GMT+8, 2022-10-3 03:32 , Processed in 0.338263 second(s), 35 queries .

    Powered by Discuz! X3.4

    © 2001-2020 Comsenz Inc.