热搜: 3D 4K 2019 2020 UHD
微信扫一扫 分享朋友圈

已有 77 人浏览分享

[BDISO] [中華丈夫/中华丈夫/醉打【邵氏出品 必屬佳片】]Heroes of the East 1978 1080p BluRay AVC DTS-HD MA 5.1-UNRELiABLE [46.25GB]

[复制链接]

该用户从未签到

6万

主题

6万

帖子

18万

积分

管理员

Rank: 9Rank: 9Rank: 9

积分
184222
发表于  2022-3-1 08:09:12 | 显示全部楼层 | 阅读模式
[中華丈夫/中华丈夫/醉打【邵氏出品 必屬佳片】]Heroes of the East 1978 1080p BluRay AVC DTS-HD MA 5.1-UNRELiABLE  [46.25GB]-1.jpg

◎译  名 中华丈夫 / 醉打 / Shaolin Challenges Ninja / Heroes of the East / Zhong hua zhang fu
◎片  名 中華丈夫
◎年  代 1978
◎产  地 香港
◎类  别 剧情 / 动作 / 武侠 / 古装
◎语  言 国语 / 粤语
◎上映日期 1978-12-30
◎IMDb评分  7.6/10 from 2,178 users
◎IMDb链接  https://www.imdb.com/title/tt0080172/
◎豆瓣评分 7.7/10  2225人评价
◎豆瓣链接 https://movie.douban.com/subject/1477440/
◎片  长 100 分钟
◎导  演 刘家良 Chia-Liang Liu
◎编  剧 倪匡 Kuang Ni
◎主  演 刘家辉 Chia Hui Liu
      袁小田
      仓田保昭 Yasuaki Kurata
      水野结花
◎标  签 邵氏 | 香港 | 动作 | 功夫 | 1978 | 武侠 | 劉家輝 | 经典
◎简  介  
  富家子何滔(刘家辉 饰)自幼习武,近来被父亲逼着和日本回来的娃娃亲对象成婚,不情愿的何滔在见识了妻子弓子(水野结花 饰)的美貌后欣然同意。但弓子一身日本功夫,每日操练使家中流出了“何滔殴妻”的传闻,何滔试图令弓子修炼更为斯文的中国武术,单被以日本文化自豪的后者拒绝,何滔与妻子争执不下,二人动起手来,弓子不敌遂赌气回日本跟从忍术高手武野三藏(仓田保昭 饰)进修。何滔向妻子发出挑战书,不料被一直属意弓子的武野三藏看到,为了向情敌示威、捍卫日本功夫尊严,武野召集各流派高手赴中国向何滔应战。何滔方面,亦在师傅和师兄弟们的协助下,商议破敌对策,一场夫妻口角演变为中日武术界的战斗……
DISC INFO:
Disc Title:     HEROES OF THE EAST / DIRTY HO
Disc Label:     Heroes.of.the.East.1978.Dirty.Ho.1979.COMPLETE.BLURAY-UNRELiABLE
Disc Size:      49,664,301,815 bytes
Protection:     AACS
BDInfo:         0.7.5.5
PLAYLIST REPORT:
Name:                   00001.MPLS
Length:                 1:44:58.500 (h:m:s.ms)
Size:                   18,171,715,200 bytes
Total Bitrate:          23.08 Mbps
VIDEO:
Codec                   Bitrate             Description     
-----                   -------             -----------     
MPEG-4 AVC Video        17993 kbps          1080p / 23.976 fps / 16:9 / High Profile 4.1
AUDIO:
Codec                           Language        Bitrate         Description     
-----                           --------        -------         -----------     
DTS-HD Master Audio             Chinese         1061 kbps       1.0 / 48 kHz /  1061 kbps / 24-bit (DTS Core: 1.0 / 48 kHz /   768 kbps / 24-bit)
DTS-HD Master Audio             Chinese         1082 kbps       1.0 / 48 kHz /  1082 kbps / 24-bit (DTS Core: 1.0 / 48 kHz /   768 kbps / 24-bit)
DTS-HD Master Audio             English         1038 kbps       1.0 / 48 kHz /  1038 kbps / 24-bit (DTS Core: 1.0 / 48 kHz /   768 kbps / 24-bit)
Dolby Digital Audio             English         320 kbps        2.0 / 48 kHz /   320 kbps / DN -31dB
SUBTITLES:
Codec                           Language        Bitrate         Description     
-----                           --------        -------         -----------     
Presentation Graphics           English         22.660 kbps                     
Presentation Graphics           English         19.971 kbps                     
Presentation Graphics           English         0.383 kbps                     
FILES:
Name            Time In         Length          Size            Total Bitrate   
----            -------         ------          ----            -------------   
00011.M2TS      0:00:00.000     0:00:01.000     445,824         3,420           
00004.M2TS      0:00:01.000     1:44:56.498     18,171,253,632  23,087         
00012.M2TS      1:44:57.499     0:00:01.000     15,744          121            
游客,如果您要查看本帖隐藏内容请回复

游客,如果您要查看本帖隐藏内容请回复

回复

使用道具 举报

  • TA的每日心情
    开心
    15 小时前
  • 签到天数: 255 天

    [LV.8]以坛为家I

    3

    主题

    2772

    帖子

    2901

    积分

    铂金VIP会员

    Rank: 12Rank: 12Rank: 12

    积分
    2901
    发表于 2022-3-20 09:11:48 | 显示全部楼层
    中华丈夫
    回复

    使用道具 举报

  • TA的每日心情
    无聊
    2 小时前
  • 签到天数: 242 天

    [LV.8]以坛为家I

    16

    主题

    6033

    帖子

    6134

    积分

    铂金VIP会员

    Rank: 12Rank: 12Rank: 12

    积分
    6134
    发表于 2022-4-14 07:57:30 | 显示全部楼层
    感谢分享
    回复

    使用道具 举报

  • TA的每日心情
    慵懒
    22 小时前
  • 签到天数: 77 天

    [LV.6]常住居民II

    0

    主题

    247

    帖子

    339

    积分

    铂金VIP会员

    Rank: 12Rank: 12Rank: 12

    积分
    339
    发表于 2022-8-15 21:41:50 | 显示全部楼层
    感谢分享
    回复

    使用道具 举报

  • TA的每日心情
    开心
    6 小时前
  • 签到天数: 178 天

    [LV.7]常住居民III

    2

    主题

    5701

    帖子

    5828

    积分

    白金VIP会员

    Rank: 3Rank: 3

    积分
    5828
    发表于 2022-10-3 01:05:11 | 显示全部楼层
    谢谢分享
    回复

    使用道具 举报

  • TA的每日心情
    开心
    14 小时前
  • 签到天数: 152 天

    [LV.7]常住居民III

    0

    主题

    4935

    帖子

    5054

    积分

    钻石VIP会员(年)

    Rank: 15Rank: 15Rank: 15Rank: 15Rank: 15

    积分
    5054
    发表于 2022-10-23 17:05:02 | 显示全部楼层
    谢谢啦!
    回复

    使用道具 举报

    您需要登录后才可以回帖 登录 | 立即注册

    本版积分规则

    0

    关注

    0

    粉丝

    65764

    主题
    今日推荐
    下载排行
    最新电影
    今日推荐

    QQ|Archiver|手机版|小黑屋|高清鸭-HDDUCK |网站地图

    GMT+8, 2022-12-1 22:33 , Processed in 0.213279 second(s), 34 queries .

    Powered by Discuz! X3.4

    © 2001-2020 Comsenz Inc.