热搜: 3D 4K 2019 2020 UHD
微信扫一扫 分享朋友圈

已有 1160 人浏览分享

[BDISO] [ 人生七年9/63岁起/人生七年第九季/人生七载之当我六十三 ] [原盘DIY简繁双语四字幕] 63 Up 2019 1080p Blu-ray AVC LPCM 2 0-ltzww@CHDBits [37.54 GB]

[复制链接]

该用户从未签到

7万

主题

7万

帖子

11万

积分

管理员

Rank: 9Rank: 9Rank: 9

积分
114922
发表于  2020-10-5 06:45:19 | 显示全部楼层 | 阅读模式
1,原盘无后缀,字幕腾讯中字,CHD字幕组合成双语,一并感谢!
2,菜单未改,追加简繁双语四字幕。
3,测试环境为芝杜X9S,PowerDVD17,VLC media player,TMT6,PotPlayer,试播正常,其余未测试。
4,本资源及相关素材、框架结构,未经CHD许可,严禁转载、提取发布或作为压制源,谢谢!

[ 人生七年9/63岁起/人生七年第九季/人生七载之当我六十三 ] [原盘DIY简繁双语四字幕] 63 Up 2019 1080p Blu-ray AVC LPCM 2 0-ltzww@CHDBits [37.54 GB]-1.jpg
◎译  名 人生七年9/63岁起/人生七年第九季/人生七载之当我六十三
◎片  名 63 Up
◎年  代 2019
◎产  地 英国
◎类  别 纪录片
◎语  言 英语
◎上映日期 2019-06-04(英国)
◎IMDb评分  8.2/10 from 476 users
◎IMDb链接  https://www.imdb.com/title/tt8929142/
◎豆瓣评分 9.6/10 from 3,366 users
◎豆瓣链接 https://movie.douban.com/subject/30322776/
◎片  长 180分钟
◎导  演 迈克尔·艾普特 Michael Apted
◎主  演 Tony Walker
       Charles Furneaux
       Nicholas Hitchon

◎标  签 纪录片 | 人生七年 | 人生 | BBC | 纪实 | 成长 | 英国 | 社会

◎简  介

  迈克尔·艾普特从1964年开始拍摄纪录片系列的第一部,采访来自英国不同阶层的十四个七岁的小孩子,他们有的来自孤儿院,有的是上层社会的小孩。此后每隔七年,艾普特都会重新采访当年的这些孩子,倾听他们的梦想,畅谈他们的生活。四十九岁知天命,看尽岁月流逝,看穿沧海桑田。本片综合 了被访者七岁、十四岁、二十一岁、二十八岁、三十五岁、四十二岁、四十九岁及五十六岁多年的访问精华。 《人生七年》荣获2006年英国电影学院奖和金卫星奖提名。

◎获奖情况

  第24届金卫星奖  (2020)
  电影部门最佳纪录片

  第6届豆瓣电影年度榜单  (2019)
  评分最高的纪录片

DISC INFO:

Disc Label:     63 Up 2019 1080p Blu-ray AVC LPCM 2.0-ltzww@CHDBtis
Disc Size:      40,307,292,564 bytes
Protection:     AACS
Extras:         50Hz Content
BDInfo:         0.7.5.5

PLAYLIST REPORT:

Name:                   00002.MPLS
Length:                 3:09:44.000 (h:m:s.ms)
Size:                   40,292,714,496 bytes
Total Bitrate:          28.32 Mbps

VIDEO:

Codec                   Bitrate             Description     
-----                   -------             -----------     
MPEG-4 AVC Video        24335 kbps          1080i / 25 fps / 16:9 / High Profile 4.1

AUDIO:

Codec                           Language        Bitrate         Description     
-----                           --------        -------         -----------     
LPCM Audio                      English         1536 kbps       2.0 / 48 kHz /  1536 kbps / 16-bit

SUBTITLES:

Codec                           Language        Bitrate         Description     
-----                           --------        -------         -----------     
Presentation Graphics           English         514.117 kbps                    
Presentation Graphics           Chinese         69.734 kbps   简体中文                     
Presentation Graphics           Chinese         68.804 kbps   繁体中文                  
Presentation Graphics           Chinese         132.522 kbps   简英双语                    
Presentation Graphics           Chinese         131.546 kbps   繁英双语               

FILES:

Name            Time In         Length          Size            Total Bitrate   
----            -------         ------          ----            -------------   
00002.M2TS      0:00:00.000     0:47:41.000     10,254,231,552  28,673         
00003.M2TS      0:47:41.000     0:47:46.000     10,167,896,064  28,382         
00004.M2TS      1:35:27.000     0:47:44.000     10,271,619,072  28,692         
00006.M2TS      2:23:11.000     0:46:33.000     9,598,967,808   27,494   

[ 人生七年9/63岁起/人生七年第九季/人生七载之当我六十三 ] [原盘DIY简繁双语四字幕] 63 Up 2019 1080p Blu-ray AVC LPCM 2 0-ltzww@CHDBits [37.54 GB]-2.jpg

[ 人生七年9/63岁起/人生七年第九季/人生七载之当我六十三 ] [原盘DIY简繁双语四字幕] 63 Up 2019 1080p Blu-ray AVC LPCM 2 0-ltzww@CHDBits [37.54 GB]-3.jpg

[ 人生七年9/63岁起/人生七年第九季/人生七载之当我六十三 ] [原盘DIY简繁双语四字幕] 63 Up 2019 1080p Blu-ray AVC LPCM 2 0-ltzww@CHDBits [37.54 GB]-4.jpg

[ 人生七年9/63岁起/人生七年第九季/人生七载之当我六十三 ] [原盘DIY简繁双语四字幕] 63 Up 2019 1080p Blu-ray AVC LPCM 2 0-ltzww@CHDBits [37.54 GB]-5.jpg
游客,如果您要查看本帖隐藏内容请回复


回复

使用道具 举报

  • TA的每日心情
    开心
    2023-12-27 01:22
  • 签到天数: 9 天

    [LV.3]偶尔看看II

    3

    主题

    435

    帖子

    449

    积分

    中级会员

    Rank: 3Rank: 3

    积分
    449
    发表于 2021-7-29 00:55:07 | 显示全部楼层
    感谢分享
    回复

    使用道具 举报

  • TA的每日心情
    开心
    前天 19:06
  • 签到天数: 691 天

    [LV.9]以坛为家II

    2

    主题

    5444

    帖子

    7345

    积分

    白金VIP会员

    Rank: 3Rank: 3

    积分
    7345
    发表于 2022-5-4 19:56:55 | 显示全部楼层
    谢谢分享
    回复

    使用道具 举报

  • TA的每日心情
    开心
    前天 19:06
  • 签到天数: 691 天

    [LV.9]以坛为家II

    2

    主题

    5444

    帖子

    7345

    积分

    白金VIP会员

    Rank: 3Rank: 3

    积分
    7345
    发表于 2022-11-11 23:23:22 | 显示全部楼层
    谢谢分享
    回复

    使用道具 举报

  • TA的每日心情
    开心
    16 小时前
  • 签到天数: 519 天

    [LV.9]以坛为家II

    2

    主题

    2278

    帖子

    4448

    积分

    白金VIP会员

    Rank: 3Rank: 3

    积分
    4448
    发表于 2023-1-28 10:34:13 | 显示全部楼层
    谢谢分享
    回复

    使用道具 举报

  • TA的每日心情
    慵懒
    2023-3-25 19:20
  • 签到天数: 1 天

    [LV.1]初来乍到

    0

    主题

    2

    帖子

    23

    积分

    新手上路

    Rank: 1

    积分
    23
    发表于 2023-3-25 19:28:49 | 显示全部楼层
    正好在找!感谢分享!
    回复

    使用道具 举报

  • TA的每日心情
    开心
    8 小时前
  • 签到天数: 313 天

    [LV.8]以坛为家I

    6

    主题

    1821

    帖子

    3135

    积分

    黄金VIP会员

    Rank: 2

    积分
    3135
    发表于 2023-4-29 15:14:03 | 显示全部楼层
    谢谢楼主
    回复

    使用道具 举报

  • TA的每日心情

    2023-8-6 02:55
  • 签到天数: 2 天

    [LV.1]初来乍到

    0

    主题

    3

    帖子

    24

    积分

    新手上路

    Rank: 1

    积分
    24
    发表于 2023-7-20 14:28:50 | 显示全部楼层
    感谢分享
    回复

    使用道具 举报

  • TA的每日心情
    奋斗
    2023-7-28 00:49
  • 签到天数: 1 天

    [LV.1]初来乍到

    1

    主题

    3

    帖子

    202

    积分

    中级会员

    Rank: 3Rank: 3

    积分
    202
    发表于 2023-7-28 00:54:17 | 显示全部楼层
    感谢分享 这是我要的
    回复

    使用道具 举报

  • TA的每日心情
    开心
    8 小时前
  • 签到天数: 500 天

    [LV.9]以坛为家II

    1

    主题

    2049

    帖子

    4143

    积分

    白金VIP会员

    Rank: 3Rank: 3

    积分
    4143
    发表于 2023-7-28 20:34:52 | 显示全部楼层
    谢谢分享 收藏
    回复

    使用道具 举报

    您需要登录后才可以回帖 登录 | 立即注册

    本版积分规则

    0

    关注

    1

    粉丝

    74361

    主题
    今日推荐
    下载排行
    最新电影
    今日推荐

    QQ|Archiver|手机版|小黑屋|高清鸭-HDDUCK--每天开心网 ( 渝ICP备2021002221号-2 )

    GMT+8, 2024-4-23 18:36 , Processed in 0.626416 second(s), 36 queries .

    Powered by Discuz! X3.4

    © 2001-2020 Comsenz Inc.